#TITLE:God know;
#SUBTITLE:;
#ARTIST:Unknown artist;
#TITLETRANSLIT:;
#SUBTITLETRANSLIT:;
#ARTISTTRANSLIT:;
#CREDIT:;
#BANNER:;
#BACKGROUND:;
#LYRICSPATH:;
#CDTITLE:god know.png;
#MUSIC:God know.ogg;
#OFFSET:-0.020;
#SAMPLESTART:65.920;
#SAMPLELENGTH:12.000;
#SELECTABLE:YES;
#BPMS:0.000=150.000;
#STOPS:;
#BGCHANGES:;
// cache tags:
#FIRSTBEAT:4.000;
#LASTBEAT:316.750;
#SONGFILENAME:Songs/SDO/God know/God know.sm;
#HASMUSIC:1;
#HASBANNER:0;
#MUSICLENGTH:128.184;
// end cache tags

//---------------dance-single - ----------------
#NOTES:
     dance-single:
     :
     Hard:
     1:
     1.000,1.000,1.000,0.125,0.967,759.000,138.000,16.000,0.000,35.000:
0000
0000
0000
0000
,
1001
0000
0000
0000
1001
0000
0000
0000
0100
0010
1000
0001
0010
0100
1000
0010
,
0100
0010
0001
0000
1000
0000
0100
0000
0001
0000
0010
0000
0100
0000
0001
0000
,
1000
0100
1000
0000
0010
0000
0100
0000
0001
0000
1000
0000
0010
0000
0001
0000
,
0100
1000
0010
0000
0001
0000
0100
0000
0010
0000
1000
0000
0001
0000
0200
0000
,
0000
0010
0001
1300
0000
0010
0001
0100
,
1000
0010
0100
0000
0001
0000
0100
0000
0010
0000
1000
0000
0100
0000
0001
0000
,
0100
0010
1000
0000
0001
0000
0100
0000
0010
0000
1000
0000
0001
0000
0010
0000
,
0001
0010
0100
0010
0001
0010
0001
0010
0100
0010
0100
0010
0100
1000
0100
1000
,
0100
0010
0100
0010
0001
0100
1000
0010
,
0100
0001
0010
0000
1000
0000
0100
0000
0001
0000
0010
0000
0100
0000
0010
0000
,
1000
0010
0100
0000
0001
0000
1000
0000
0100
0000
0001
0000
0010
0000
0100
0000
,
0001
0010
1000
0100
0001
0010
0100
0010
,
0001
0100
0010
0000
1000
0000
0100
0000
0001
0000
0010
0000
0100
0000
0001
0000
,
1000
0010
0100
0000
0001
0000
0010
0000
1000
0000
0100
0000
0001
0000
0010
0000
,
1000
0001
0100
0000
0010
0000
1000
0000
0001
0000
0100
0000
0001
0000
0010
0000
,
1000
0100
0010
0100
0001
0010
0100
0010
1000
0100
0001
0010
0001
0010
0100
0010
,
0200
0000
0000
0002
0000
0000
0000
0000
,
2313
0101
0110
0101
,
0110
0101
0110
0101
,
3120
0000
1100
0100
1001
0000
1100
0000
,
0101
0000
0101
1000
1100
0000
1101
0000
,
1231
0011
0011
1001
,
1312
1010
1100
0110
,
1023
0000
0101
0000
1001
0000
1100
0002
,
1100
1000
1100
1100
,
0133
0010
1001
0100
0011
1000
0110
0001
,
1100
0010
0101
1000
0110
0001
1010
0100
,
0011
0000
1000
0000
0110
0000
0001
0000
1010
0000
0100
0000
1000
0010
0100
0001
,
1000
0010
0001
0100
1000
0100
0010
0001
0010
0100
0010
0100
0010
0001
0010
0100
,
1010
0001
0110
1000
0101
0010
1100
0001
,
1010
0000
0100
0000
0011
0000
1000
0001
0110
0000
0001
0000
1010
0000
0001
0000
,
0110
0000
1000
0000
0010
0001
0010
0100
1000
0100
0010
0100
0010
0001
0010
0001
,
0010
0100
0010
0100
1000
0100
1000
0100
0010
0100
0010
0100
0010
0000
0000
0000
,
1010
0001
0110
1000
,
0011
0100
1010
0001
,
0110
1000
0101
0010
,
1001
0000
0100
0000
0011
0011
1000
0000
,
0101
0010
1100
0001
,
0110
0000
0001
0000
1100
1100
0010
0000
,
0101
0000
1000
0000
0110
0110
0001
0000
,
1010
0000
0000
0001
0110
0000
0000
0000
1000
0000
0010
0100
0010
0001
0010
0001
,
1010
0001
0100
0010
0100
1000
0100
0010
0101
1000
0101
0010
1000
0100
0010
1000
,
0101
0010
0100
1000
0100
0001
0010
0001
1100
0010
1100
0010
0001
0010
0100
1000
,
0110
0001
0010
0100
0001
0100
0010
0001
1010
0100
1010
0001
0010
0100
1000
0010
,
1001
0010
0100
1000
0010
0001
0010
1000
0101
0010
0101
1000
0100
0010
0001
1000
,
0110
0001
0010
0100
0001
0010
0100
0010
1100
0001
1100
0010
0001
0010
0100
0010
,
1001
0010
0100
0010
1100
0010
0001
0010
0101
1000
0101
0010
0100
1000
0010
0001
,
0110
1000
0100
0010
0101
1000
0010
0001
1100
0010
1100
0001
0010
0100
0001
0000
,
0000
0000
0000
0000
0010
0000
0000
0000
1000
0000
0010
0100
1000
0000
0001
0010
,
0100
0000
0000
0000
0010
0100
1000
0001
0110
1000
0110
0001
0010
0100
0010
0001
,
1100
0010
0001
0010
0100
1000
0010
0001
1100
0010
1100
0001
0010
0100
1000
0010
,
0101
1000
0101
0010
0001
0010
0100
1000
0110
0001
0110
1000
0010
0100
1000
0010
,
1001
0100
1001
0010
0100
0001
0010
0100
1001
0010
1001
0100
0010
0100
0001
1000
,
0110
0001
0110
1000
0100
0010
0001
1000
0101
0010
0101
1000
0010
0001
1000
0010
,
1100
0001
1100
0010
0001
1000
0100
0010
0101
1000
0101
0010
0001
0010
0100
1000
,
0011
0100
0011
1000
0100
0010
0001
0010
0100
1000
0100
0001
0010
0100
1000
0010
,
0101
0000
0101
1000
0010
0001
0100
0010
1100
0000
1100
0001
0010
0001
0100
1000
,
0110
0001
0110
1000
0010
0001
0100
1000
0011
0100
0011
1000
0100
0010
0100
0001
,
0110
1000
0110
0001
0010
0000
0000
0000
0100
0010
0001
0010
0100
1000
0100
0010
,
0100
0000
0001
0000
0100
0000
1000
0010
0100
0010
0001
0010
0100
0010
0100
1000
,
0100
1000
0100
0010
0200
0000
0000
0000
1000
0000
0000
0000
0001
0000
0010
0000
,
0000
0001
1300
0000
0010
0000
0001
0010
0000
0000
1000
0000
0100
0001
0010
0000
,
0200
0001
0000
1000
0000
0001
0310
1000
,
0010
0000
0001
0100
0010
0000
0100
0000
1000
0000
0001
0000
0010
0000
0100
1000
,
0010
0100
0001
0100
0010
0100
1000
0001
,
0010
0000
0001
0010
1100
0000
0010
0001
1000
0010
1100
0000
0001
0000
0010
0001
,
0110
1000
0010
0001
0010
0100
0010
1000
,
1001
0000
0100
0001
0010
0100
1000
0000
0011
0000
0100
0010
0001
0010
0100
0000
,
0010
0000
0100
0010
0100
1000
0100
1000
0010
0000
0100
0000
0010
0000
0100
0000
,
0001
0100
1000
0100
0010
0001
0010
0100
1000
0100
1000
0100
0010
0100
0010
0100
,
0010
0001
0010
0100
1000
0100
0010
0001
0011
0100
1000
0100
0010
0001
0010
0100
,
1100
0010
0001
0010
0100
1000
0110
0001
0010
0001
0010
0100
0010
0100
1000
0100
,
1001
0100
1000
0100
0010
0100
0010
0100
0010
0100
0010
0001
0010
0001
0010
0001
,
0010
0100
1000
0001
0000
0000
0000
0000
2002
0000
0000
0000
0000
0000
0000
0000
,
3223
0000
0000
0000
,
0000
0000
0000
0000
,
0000
0000
0000
0000
,
0000
0000
0000
0000
0000
2000
0000
0000
0000
0000
0000
0000
0000
0000
0000
0000
,
3300
0130
1000
0001
0000
0000
0000
0000
0000
0000
0000
0000
0000
0000
0000
0000
;
